<?xml version="1.0" standalone="no"?>
<!DOCTYPE svg PUBLIC "-//W3C//DTD SVG 1.1//EN" "http://www.w3.org/Graphics/SVG/1.1/DTD/svg11.dtd" >
<svg xmlns="http://www.w3.org/2000/svg">
<defs>
  <font id="icons" horiz-adv-x="9446.9375">
    <font-face font-family="icons"
      units-per-em="1001" ascent="1001"
      descent="0" />
    <missing-glyph horiz-adv-x="0" />
    <glyph glyph-name="arrow-down"
      unicode="&#xE001;"
      horiz-adv-x="1801.8" d="M0 1001L900.9 0L1801.8 1001z" />
    <glyph glyph-name="arrow-right"
      unicode="&#xE002;"
      horiz-adv-x="1437.1499999999999" d="M901.3766666666666 884.2166666666667A59.10666666666666 59.10666666666666 0 0 0 901.3766666666666 967.6333333333334A57.67666666666666 57.67666666666666 0 0 0 984.3166666666666 967.6333333333334L1404.26 543.8766666666668A60.059999999999995 60.059999999999995 0 0 0 1404.26 459.9833333333333L984.3166666666666 36.2266666666666A58.62999999999999 58.62999999999999 0 0 0 942.8466666666664 18.5899999999999A56.723333333333336 56.723333333333336 0 0 0 901.3766666666664 36.2266666666666A59.10666666666666 59.10666666666666 0 0 0 901.3766666666664 119.6433333333333L1221.2199999999998 442.8233333333333H74.36A59.10666666666666 59.10666666666666 0 0 0 74.36 561.0366666666666H1221.22z" />
    <glyph glyph-name="arrow-up"
      unicode="&#xE003;"
      horiz-adv-x="1801.8" d="M1801.8 0L900.9 1001L0 0L1801.8 0z" />
    <glyph glyph-name="backbone"
      unicode="&#xE004;"
      horiz-adv-x="6506.5" d="M540.5400000000001 512.512C586.5860000000001 536.5360000000001 654.654 606.606 654.654 714.7139999999999C654.654 882.8820000000001 550.5500000000001 990.99 370.3700000000001 990.99H1e-13V6.006H386.3860000000001C550.5500000000001 6.006 668.668 106.106 668.668 290.2900000000001C668.668 422.4220000000001 596.5960000000001 484.484 540.5400000000001 512.512zM180.18 820.8199999999999H356.356C432.432 820.8199999999999 476.476 774.774 476.476 706.706S434.434 592.5920000000001 356.356 592.5920000000001H180.18V820.82zM368.368 180.1800000000001H180.18V422.4220000000001H368.368C450.45 422.4220000000001 488.488 368.368 488.488 302.302S448.4480000000001 180.1800000000001 368.368 180.1800000000001zM1923.922 822.822C2014.012 822.822 2060.058 762.762 2078.076 684.684H2260.258C2226.224 888.8879999999999 2094.092 992.992 1921.92 992.992C1821.82 992.992 1739.738 954.954 1675.674 886.886C1583.5819999999999 788.788 1585.5839999999998 666.6659999999999 1585.5839999999998 496.496C1585.5839999999998 328.328 1583.5819999999999 206.206 1675.674 106.106C1739.738 38.038 1821.82 0 1921.92 0C2092.0899999999997 0 2226.2239999999997 104.1039999999999 2258.256 308.3080000000001H2076.074C2058.056 230.2300000000002 2012.0099999999995 170.1700000000001 1921.92 170.1700000000001C1873.872 170.1700000000001 1833.832 190.1900000000001 1807.806 220.2200000000002C1773.7719999999997 262.2620000000002 1763.7619999999997 308.3080000000001 1763.7619999999997 496.4960000000001S1773.7719999999997 730.73 1807.806 772.7720000000002C1835.834 804.8040000000001 1873.872 822.8220000000001 1923.922 822.8220000000001zM3867.864 512.512C3913.91 536.5360000000001 3981.978 606.606 3981.978 714.7139999999999C3981.978 882.8820000000001 3877.874 990.99 3697.694 990.99H3327.324V6.006H3713.71C3877.874 6.006 3995.992 106.106 3995.992 290.2900000000001C3993.99 422.4220000000001 3921.918 484.484 3867.864 512.512zM3505.502 820.8199999999999H3681.678C3757.754 820.8199999999999 3801.798 774.774 3801.798 706.706S3759.756 592.5920000000001 3681.678 592.5920000000001H3505.502V820.82zM3693.69 180.1800000000001H3505.502V422.4220000000001H3693.69C3775.772 422.4220000000001 3813.81 368.368 3813.81 302.302S3775.772 180.1800000000001 3693.69 180.1800000000001zM4488.484 1001C4388.384 1001 4310.3060000000005 962.962 4248.244 892.892C4158.1539999999995 792.7919999999999 4160.156 670.67 4160.156 500.5S4158.1539999999995 208.208 4248.244 108.108C4310.3060000000005 38.038 4388.383999999999 0 4488.484 0S4664.66 38.038 4726.722 108.108C4816.811999999999 208.208 4814.8099999999995 330.33 4814.8099999999995 500.5S4816.811999999999 792.7919999999999 4726.722 892.892C4664.659999999999 962.962 4588.584 1001 4488.484 1001zM4598.594 224.2239999999999C4574.570000000001 192.1919999999999 4534.530000000001 172.1719999999999 4488.484 172.1719999999999C4440.436 172.1719999999999 4400.396 192.1919999999999 4376.372 224.2239999999999C4342.338 266.266 4334.33 310.31 4334.33 500.5C4334.33 688.688 4342.338 734.7339999999999 4376.372 776.7760000000001C4400.396 808.808 4440.436 828.828 4488.484 828.828S4574.570000000001 808.808 4598.594 776.7760000000001C4632.628 734.734 4642.638 688.6880000000001 4642.638 500.5C4642.638 310.3100000000001 4632.628 266.266 4598.594 224.2239999999999zM5481.476 404.404L5163.158 992.992H4994.99V8.008H5175.17V588.588L5501.495999999999 8.008H5661.656V992.992H5481.476V404.404zM6514.508 820.8199999999999V992.992H5843.838V8.008H6514.508V180.18H6022.016V418.4179999999999H6450.4439999999995V590.5899999999999H6022.016V820.8199999999999H6514.508zM1085.084 986.986L748.748 6.006H936.936L1161.1599999999999 698.698L1375.3739999999998 6.006H1563.562L1227.2259999999997 986.986H1085.0839999999998zM3175.172 992.992H2952.9500000000003L2620.6180000000004 566.566V992.992H2418.416V8.008H2620.6180000000004V466.466L2972.9700000000003 10.01H3203.2000000000003L2818.8160000000003 516.5160000000001L3175.172 992.992z" />
    <glyph glyph-name="cerrar"
      unicode="&#xE005;"
      horiz-adv-x="1008.6121673003803" d="M57.0912547528517 974.3574144486691L506.2091254752852 525.2395437262358L951.5209125475286 974.3574144486691L978.1634980988593 947.7148288973386L532.851711026616 498.5969581749051L981.9695817490496 49.4790874524715L951.5209125475286 22.8365019011408L506.2091254752852 471.9543726235742L57.0912547528517 22.8365019011408L30.4486692015209 49.4790874524715L479.5665399239545 498.5969581749051L30.4486692015209 947.7148288973386L57.0912547528517 974.3574144486691z" />
    <glyph glyph-name="cerrar2"
      unicode="&#xE006;"
      horiz-adv-x="1021.02" d="M660.66 500.5L988.6066666666666 179.7033333333334A61.013333333333335 61.013333333333335 0 0 0 988.6066666666666 91.52L929.9766666666666 33.8433333333333A65.30333333333333 65.30333333333333 0 0 0 839.41 33.8433333333333L511.4633333333333 354.6399999999999L183.5166666666667 33.8433333333335A65.30333333333333 65.30333333333333 0 0 0 92.95 33.8433333333335L34.32 91.5200000000001A61.013333333333335 61.013333333333335 0 0 0 34.32 179.7033333333335L362.2666666666667 500.5L34.32 820.82A61.489999999999995 61.489999999999995 0 0 0 34.32 909.48L95.3333333333333 966.68A65.30333333333333 65.30333333333333 0 0 0 185.9 966.68L513.8466666666666 646.36L839.41 966.68A65.30333333333333 65.30333333333333 0 0 0 929.9766666666666 966.68L988.6066666666666 909.48A61.489999999999995 61.489999999999995 0 0 0 988.6066666666666 820.8199999999999z" />
    <glyph glyph-name="confirmar"
      unicode="&#xE007;"
      horiz-adv-x="969.71875" d="M565.1270625 135.47909375L480.19846875 438.0000625L836.8985625 800.6123125zM790.3520625 846.12653125L433.9960625 486.486L135.3226875 572.5094375zM917.88571875 972.972L23.17940625 597.4093124999999A33.31453125 33.31453125 0 0 1 26.77675 534.62784375L416.94778125 422.39071875L527.7146875000001 27.2146875000001C531.6248437500001 13.638625 543.5742812500001 4.004 557.557 3.3158125000001H559.52771875C572.66584375 3.3158125000001 584.55271875 11.29253125 589.68284375 23.5860625L960.49078125 929.803875A33.3458125 33.3458125 0 0 1 942.22253125 972.972C934.40221875 976.100125 925.70603125 976.100125 917.8544375 972.972z" />
    <glyph glyph-name="down"
      unicode="&#xE008;"
      horiz-adv-x="1592.5" d="M783.965 393.211L191.919 962.962L0 762.944L783.965 11.3295000000001L1569.8410000000001 762.944L1377.9675 962.962z" />
    <glyph glyph-name="download"
      unicode="&#xE009;"
      horiz-adv-x="609.304347826087" d="M15.6678260869565 663.1842608695653C21.8914347826087 663.1842608695653 26.0695217391304 664.1417391304349 30.334652173913 664.1417391304349C81.4726956521739 664.1417391304349 132.6107391304348 664.6204782608696 183.6617391304348 664.1417391304349C194.6292173913044 664.1417391304349 196.6747391304348 668.2327826086957 196.6747391304348 679.8095652173913V981.5457826086956C196.5441739130435 998.301652173913 196.5441739130435 998.301652173913 210.601695652174 998.301652173913H395.8737391304348C410.0618260869566 998.301652173913 410.0618260869566 998.301652173913 410.0618260869566 982.1986086956522V681.3763478260869C410.0618260869566 663.9241304347827 410.0618260869566 663.9241304347827 425.2073913043479 663.9241304347827H576.271347826087C580.275347826087 663.9241304347827 584.2358260869565 663.9241304347827 590.9381739130436 663.0536956521739C586.977695652174 658.2663043478261 584.6275217391305 655.2633043478261 582.2338260869566 652.5649565217391L363.1889130434784 412.9342608695653C345.9978260869567 394.1328695652174 328.5456086956523 375.5926086956522 311.7462173913044 356.1819130434783C305.1309130434784 348.6091304347827 301.0833913043479 348.9137826086957 294.4680869565218 356.1819130434783A25033.921956521743 25033.921956521743 0 0 1 142.0114347826088 523.6970869565217L19.6283043478261 658.1357391304348C18.7578695652174 658.7015217391304 18.1050434782609 660.0506956521739 15.6678260869565 663.1842608695652zM15.6678260869565 27.9409565217392V196.1089565217392H590.8511304347826V27.9409565217392z" />
    <glyph glyph-name="expression"
      unicode="&#xE00A;"
      horiz-adv-x="9446.9375" d="M290.29 10.01H506.506L216.216 502.502L506.506 994.994H290.29L1e-13 502.502zM9147.137999999999 994.994H8930.922L9221.212 502.502L8930.922 10.01H9147.137999999999L9437.428 502.502zM734.734 10.01V994.994H1383.382V822.822H928.9280000000002V590.5899999999999H1317.3160000000003V418.4179999999999H928.9280000000002V180.18H1387.3860000000004V8.008C1387.3860000000004 10.01 734.7340000000003 10.01 734.7340000000003 10.01zM2066.064 10.01L1873.872 352.3520000000001L1683.6820000000002 10.01H1465.4640000000002L1771.7700000000002 514.514L1483.4820000000002 994.994H1701.7000000000003L1873.872 676.6759999999999L2048.0460000000003 994.994H2264.2620000000006L1979.9780000000003 514.514L2286.284 10.01C2286.284 10.01 2066.064 10.01 2066.064 10.01zM2788.786 378.3780000000001H2598.596V6.006H2406.404V994.994H2786.7839999999997C2988.986 994.994 3111.1079999999997 854.854 3111.1079999999997 688.688C3115.1119999999996 518.518 2992.99 378.3780000000001 2788.7859999999996 378.3780000000001zM2780.7780000000002 822.822H2600.598V552.5519999999999H2780.7780000000002C2868.866 552.5519999999999 2922.92 606.606 2922.92 688.688C2920.918 766.7660000000001 2866.864 822.822 2780.7780000000002 822.822zM3799.796 10.01L3607.604 400.4H3469.466V8.008H3277.2739999999994V994.994H3663.66C3863.86 994.994 3983.979999999999 856.856 3983.979999999999 692.692C3983.979999999999 554.554 3899.8959999999993 470.47 3803.7999999999993 432.4319999999999L4024.019999999999 8.008C4024.019999999999 10.01 3799.7959999999994 10.01 3799.7959999999994 10.01zM3649.646 822.822H3469.466V562.562H3649.646C3733.73 562.562 3789.786 616.616 3789.786 692.692S3735.732000000001 822.822 3649.646 822.822zM4182.178 10.01V994.994H4830.826V822.822H4372.3679999999995V590.5899999999999H4760.755999999999V418.4179999999999H4372.3679999999995V180.18H4830.826V8.008C4830.826 10.01 4182.178 10.01 4182.178 10.01zM5289.284 0C5141.136 0 5025.0199999999995 32.032 4928.923999999999 130.13L5053.047999999999 254.254C5117.111999999999 190.19 5199.1939999999995 170.1700000000001 5291.285999999999 170.1700000000001C5403.398 170.1700000000001 5465.46 212.2120000000001 5465.46 292.2920000000001C5465.46 326.326 5455.45 356.3560000000001 5433.428 376.376C5413.408 394.394 5393.388 404.404 5345.34 410.4100000000001L5225.219999999999 426.4260000000001C5141.136 440.4400000000001 5079.074 464.4640000000001 5033.027999999999 508.508C4984.98 556.556 4962.958 618.618 4962.958 702.702C4962.958 878.878 5093.087999999999 1003.002 5305.299999999999 1003.002C5441.435999999999 1003.002 5539.533999999999 968.968 5623.617999999999 888.888L5501.495999999998 768.768C5437.431999999999 826.826 5363.357999999998 836.836 5299.293999999999 836.836C5197.191999999998 836.836 5145.1399999999985 780.7800000000001 5145.1399999999985 712.7120000000001C5145.1399999999985 688.6880000000001 5155.149999999999 660.6600000000001 5175.169999999999 642.642S5227.221999999999 608.6080000000002 5267.261999999999 604.604L5385.379999999999 588.5880000000001C5475.469999999998 574.5740000000001 5531.525999999999 550.5500000000002 5571.565999999999 512.5120000000001C5623.617999999999 462.4620000000001 5647.641999999999 390.3900000000001 5647.641999999999 302.302C5653.647999999999 108.1080000000001 5495.489999999999 0 5289.283999999999 0zM6098.092 0C5949.9439999999995 0 5833.8279999999995 32.032 5737.731999999999 130.13L5861.855999999999 254.254C5925.919999999999 190.19 6008.001999999999 170.1700000000001 6100.093999999999 170.1700000000001C6212.205999999999 170.1700000000001 6274.268 212.2120000000001 6274.268 292.2920000000001C6274.268 326.326 6264.258 356.3560000000001 6242.236 376.376C6222.216 394.394 6202.196 404.404 6154.148 410.4100000000001L6034.027999999999 426.4260000000001C5949.9439999999995 440.4400000000001 5887.882 464.4640000000001 5841.835999999999 508.508C5793.788 556.556 5771.765999999999 618.618 5771.765999999999 702.702C5771.765999999999 878.878 5901.895999999999 1003.002 6114.107999999998 1003.002C6250.243999999999 1003.002 6348.341999999999 968.968 6432.425999999999 888.888L6310.303999999998 768.768C6246.239999999999 826.826 6172.165999999998 836.836 6108.101999999999 836.836C6005.999999999998 836.836 5953.9479999999985 780.7800000000001 5953.9479999999985 712.7120000000001C5953.9479999999985 688.6880000000001 5963.957999999999 660.6600000000001 5983.977999999999 642.642S6036.029999999999 608.6080000000002 6076.069999999999 604.604L6194.187999999999 588.5880000000001C6284.277999999998 574.5740000000001 6340.333999999999 550.5500000000002 6380.373999999999 512.5120000000001C6432.425999999999 462.4620000000001 6456.449999999998 390.3900000000001 6456.449999999998 302.302C6466.459999999998 108.1080000000001 6306.299999999998 0 6098.091999999999 0zM6646.639999999999 10.01V994.994H6838.831999999999V10.01H6646.639999999999zM7665.658 108.108C7595.588 38.038 7511.504000000002 0 7399.392 0S7201.1939999999995 38.038 7133.126 108.108C7033.026000000001 208.208 7037.030000000001 330.33 7037.030000000001 500.5S7035.028 792.7919999999999 7133.126 892.892C7203.196000000001 962.962 7289.282 1001 7399.392 1001C7511.504000000002 1001 7595.588 962.962 7665.658 892.892C7765.758 792.792 7765.758 670.6700000000001 7765.758 500.5S7763.756 208.208 7665.658 108.108zM7521.514 778.778C7493.486 810.81 7451.444 830.8299999999999 7397.39 830.8299999999999S7301.294 810.81 7273.266 778.778C7235.228000000002 738.738 7225.218 690.69 7225.218 500.5S7235.228000000002 266.266 7273.266 222.222C7301.294 190.19 7345.338 170.17 7397.39 170.17S7491.484000000001 190.19 7521.514 222.222C7559.552 262.2620000000001 7569.562 310.31 7569.562 500.5C7571.564 692.692 7559.552 736.736 7521.514 778.778zM8542.534000000001 10.01L8152.144 614.614V10.01H7957.95V994.994H8130.122L8522.514 390.39V994.994H8714.706V10.01H8542.534z" />
    <glyph glyph-name="facebook"
      unicode="&#xE00B;"
      horiz-adv-x="463.8780487804878" d="M116.4089756097561 19.6537804878049H309.7240487804878V503.8203902439024H444.6637317073171L459.0195365853659 665.9335609756097H309.7240487804879V758.2208780487805C309.7240487804879 796.4541951219512 317.4146585365854 811.5668536585366 354.4028292682927 811.5668536585366H458.9951219512195V979.7836829268292H325.1052682926829C181.2542439024391 979.7836829268292 116.3845609756098 916.4521219512196 116.3845609756098 795.1602195121951V665.9091463414634H15.8206829268293V501.7695609756097H116.4089756097561z" />
    <glyph glyph-name="garaje"
      unicode="&#xE00C;"
      horiz-adv-x="1094.1162790697674" d="M1071.3493488372094 605.7446744186047L581.6508372093024 976.137953488372A50.04999999999999 50.04999999999999 0 0 1 511.2083720930233 976.137953488372L21.5098604651163 605.7679534883721C-10.3126279069767 573.9221860465116 12.431023255814 520.5432790697673 56.7310930232558 520.5432790697673H79.4514651162791V17.2032325581395C79.4514651162791 8.1243953488371 86.2722325581395 1.2803488372093 95.3743488372093 1.2803488372093H196.4753488372093C205.5774651162791 1.2803488372093 212.3982325581395 8.1011162790697 212.3982325581395 17.2032325581395V520.52H880.4842558139535V17.179953488372C880.4842558139535 8.1011162790697 887.3050232558139 1.2570697674419 896.3838604651163 1.2570697674419H997.5081395348838C1006.5869767441862 1.2570697674419 1013.4077441860466 8.0778372093023 1013.4077441860466 17.179953488372V520.52H1036.12811627907C1080.451465116279 520.52 1103.1718372093023 575.0395813953487 1071.3493488372094 605.7213953488372zM756.6396046511628 181.9492093023256A15.03827906976744 15.03827906976744 0 0 0 741.8573953488371 167.167H683.9390697674419A15.03827906976744 15.03827906976744 0 0 0 669.1568604651162 181.9492093023256V194.4500697674419C669.1568604651162 202.3882325581396 675.9776279069766 209.2090000000001 683.9390697674419 209.2090000000001H741.903953488372C749.8188372093024 209.2090000000001 756.6628837209302 202.3882325581396 756.6628837209302 194.4500697674419zM424.8663023255814 181.9492093023256A15.03827906976744 15.03827906976744 0 0 0 410.0840930232557 167.167H352.142488372093A15.03827906976744 15.03827906976744 0 0 0 337.3835581395348 181.9492093023256V194.4500697674419C337.3835581395348 202.3882325581396 344.1810465116278 209.2090000000001 352.142488372093 209.2090000000001H410.1073720930233C418.0455348837209 209.2090000000001 424.8663023255814 202.3882325581396 424.8663023255814 194.4500697674419zM378.2848837209302 366.0168139534884C388.5043953488372 402.3787209302326 422.584953488372 428.4978372093024 461.2282093023255 428.4978372093024H631.6309999999999C670.2742558139535 428.4978372093024 704.3780930232557 403.4961162790699 714.5976046511627 366.0168139534884L732.7552790697674 303.5125116279071H360.1272093023256zM787.2981395348836 284.2141627906978A15.03827906976744 15.03827906976744 0 0 1 802.0803488372092 298.9730930232559V311.4739534883721A15.03827906976744 15.03827906976744 0 0 1 787.2981395348836 326.2328837209303H763.4603720930231L748.6781627906976 375.1189302325583C733.9192325581394 427.3571627906978 686.1971395348836 462.5783953488374 631.6542790697673 462.5783953488374H461.2282093023255C407.8260232558138 462.5783953488374 360.103930232558 427.3571627906978 344.2043255813952 375.0956511627909L329.4221162790697 326.2328837209303H304.4203953488371A15.03827906976744 15.03827906976744 0 0 1 289.6614651162789 311.4739534883722V298.973093023256C289.6614651162789 291.0116511627909 296.4822325581394 284.2141627906979 304.4203953488371 284.2141627906979H316.9212558139534A99.51802325581396 99.51802325581396 0 0 1 276.0199302325581 203.5289069767444V95.5838604651165C276.0199302325581 81.965604651163 287.3801162790697 71.7228139534886 299.880976744186 71.7228139534886H331.703465116279V24.0007209302329C331.703465116279 10.3824651162794 343.0636511627906 -0.9777209302323 356.6819069767441 -0.9777209302323H376.0035348837208C389.6450697674417 -0.9777209302323 401.0052558139534 10.3824651162794 401.0052558139534 24.0240000000002V71.746093023256H691.8539534883721V24.0240000000002C691.8539534883721 10.3824651162794 703.2141395348837 -0.9777209302323 716.8323953488372 -0.9777209302323H736.154023255814C749.7955581395348 -0.9777209302323 761.1557441860464 10.3824651162794 761.1557441860464 24.0240000000002V71.746093023256H792.9782325581394A23.977441860465113 23.977441860465113 0 0 1 816.8159999999999 95.5838604651165V203.5289069767444A97.37634883720929 97.37634883720929 0 0 1 774.7972790697673 284.2141627906979z" />
    <glyph glyph-name="instagram"
      unicode="&#xE00D;"
      horiz-adv-x="973.9459459459459" d="M486.8647567567567 982.2244864864866C617.9416486486485 982.2244864864866 634.3634594594595 981.6292972972972 685.8202702702702 979.3026486486486C737.2229729729728 976.948945945946 772.2579729729729 968.8056756756758 802.9643243243243 956.8748378378378A236.85824324324327 236.85824324324327 0 0 0 888.428081081081 901.1975945945946A236.26305405405404 236.26305405405404 0 0 0 944.1053243243242 815.7338378378379C956.036162162162 785.0274864864865 964.1794324324322 749.9924864864865 966.560189189189 698.5897837837838C968.8868378378376 647.132972972973 969.4549729729728 630.6841081081081 969.4549729729728 499.6613243243244C969.4549729729728 368.5844324324326 968.9138918918916 352.1626216216217 966.533135135135 300.705810810811C964.1794324324322 249.3031081081083 956.036162162162 214.2681081081082 944.1053243243242 183.561756756757A236.236 236.236 0 0 0 888.428081081081 98.0709459459461A236.85824324324327 236.85824324324327 0 0 0 802.9643243243243 42.4207567567568C772.2579729729729 30.516972972973 737.2229729729729 22.3466486486487 685.8202702702703 19.9658918918919C634.3634594594595 17.6662972972973 617.9145945945946 17.1252162162164 486.8647567567568 17.1252162162164S339.4201621621623 17.6662972972975 287.9362972972974 19.9929459459461C236.5877027027028 22.3466486486489 201.4985945945946 30.5440270270273 170.7922432432433 42.420756756757A236.85824324324327 236.85824324324327 0 0 0 85.3014324324325 98.0980000000002A236.10072972972972 236.10072972972972 0 0 0 29.6782972972974 183.561756756757C17.7745135135136 214.2681081081083 9.5771351351352 249.3031081081083 7.2504864864865 300.705810810811C4.8967837837838 352.1626216216217 4.3557027027028 368.6114864864866 4.3557027027028 499.6613243243244S4.8967837837838 647.105918918919 7.2504864864865 698.5897837837838C9.5771351351352 749.9924864864865 17.7474594594595 785.0274864864865 29.7053513513514 815.7338378378379A236.12778378378374 236.12778378378374 0 0 0 85.3284864864865 901.2246486486486A236.85824324324327 236.85824324324327 0 0 0 170.7922432432433 956.8748378378378C201.4985945945946 968.8056756756758 236.5877027027027 976.948945945946 287.9362972972973 979.3567567567568C339.3931081081081 981.6563513513514 355.8149189189189 982.2515405405406 486.8647567567568 982.2515405405406M486.8647567567568 895.2998108108109C358.0333513513514 895.2998108108109 342.7748648648649 894.8128378378378 291.9132432432433 892.4861891891892C244.8662432432433 890.3218648648649 219.3001621621622 882.4761891891892 202.2831621621622 875.847945945946A149.2031081081081 149.2031081081081 0 0 1 146.8223513513514 839.7578378378378A149.47364864864863 149.47364864864863 0 0 1 110.7051891891892 784.297027027027C104.1040000000001 767.2529729729729 96.2312702702703 741.7139459459459 94.1210540540541 694.694C91.7944054054055 643.7782702702702 91.2803783783784 628.5197837837839 91.2803783783784 499.6883783783784C91.2803783783784 370.829918918919 91.8214594594595 355.5714324324325 94.1210540540541 304.7098108108109C96.2312702702703 257.6357567567568 104.1040000000001 232.0967297297297 110.7051891891892 215.0797297297297A149.8524054054054 149.8524054054054 0 0 1 146.8223513513514 159.591864864865A149.2031081081081 149.2031081081081 0 0 1 202.2831621621622 123.5017567567568C219.3001621621622 116.9005675675676 244.8662432432433 109.0278378378379 291.9132432432433 106.9176216216216C342.7748648648649 104.590972972973 358.0333513513514 104.076945945946 486.8647567567568 104.076945945946C615.7502702702703 104.076945945946 630.9817027027027 104.6180270270272 681.8974324324324 106.9176216216216C728.9173783783784 109.0278378378379 754.4564054054053 116.9005675675676 771.4734054054054 123.5017567567568A149.33837837837834 149.33837837837834 0 0 1 826.9612702702702 159.5918648648649A149.7441891891892 149.7441891891892 0 0 1 863.0513783783783 215.0797297297297C869.6525675675676 232.0967297297297 877.5252972972972 257.6357567567567 879.6896216216215 304.7098108108107C881.9892162162162 355.5714324324323 882.5032432432431 370.8299189189188 882.5032432432431 499.6883783783783C882.5032432432431 628.5197837837836 881.9892162162162 643.7782702702702 879.6896216216215 694.694C877.5252972972972 741.7139459459459 869.6525675675674 767.2529729729729 863.0513783783783 784.2699729729728A149.3654324324324 149.3654324324324 0 0 1 826.9612702702702 839.7578378378378A149.3654324324324 149.3654324324324 0 0 1 771.4734054054053 875.8479459459459C754.4293513513513 882.4491351351351 728.9173783783783 890.3218648648648 681.8974324324323 892.4861891891891C630.9817027027026 894.8128378378377 615.7232162162161 895.2998108108106 486.8647567567567 895.2998108108106M486.8647567567567 338.797918918919A160.83635135135134 160.83635135135134 0 1 0 486.8647567567567 660.4706216216216A160.83635135135134 160.83635135135134 0 0 0 486.8647567567567 338.797918918919M486.8647567567567 747.4223513513514A247.81513513513514 247.81513513513514 0 1 1 486.8918108108108 251.8461891891892A247.81513513513514 247.81513513513514 0 0 1 486.8918108108108 747.4223513513514M802.3691351351351 757.242972972973A57.895675675675676 57.895675675675676 0 1 0 686.5777837837837 757.242972972973A57.895675675675676 57.895675675675676 0 0 0 802.3691351351351 757.242972972973" />
    <glyph glyph-name="search"
      unicode="&#xE00E;"
      horiz-adv-x="1001" d="M202.3926666666667 798.369A304.018 304.018 0 1 0 632.203 368.368A304.018 304.018 0 0 0 202.3926666666667 798.3213333333332zM122.1696666666667 288.145A417.22633333333334 417.22633333333334 0 0 1 669.4783333333334 250.8696666666667L904.904 15.4916666666667L985.127 95.7146666666666L749.7013333333334 331.0926666666666A417.36933333333326 417.36933333333326 0 1 1 122.1696666666668 288.574z" />
    <glyph glyph-name="slash"
      unicode="&#xE00F;"
      horiz-adv-x="1001" d="M636.636 1001H552.552L500.5 728.7280000000001L460.46 500.5L368.368 0H452.452L502.502 272.2720000000001L542.542 500.5C542.542 500.5 636.636 1001 636.636 1001z" />
    <glyph glyph-name="slider-left"
      unicode="&#xE010;"
      horiz-adv-x="520.1212567501227" d="M0 501.1669121256749L499.833087874325 0L520.1212567501227 20.2530682376042L39.207412862052 501.1669121256749L520.1212567501227 982.0807560137456L499.833087874325 1000.9999999999998z" />
    <glyph glyph-name="slider-right"
      unicode="&#xE011;"
      horiz-adv-x="520.0861561119293" d="M520.0861561119293 499.8330878743249L20.2881688757977 1000.9999999999998L0 980.7469317623955L480.9138438880707 499.8330878743249L0 18.9179439626175L20.2881688757977 0z" />
    <glyph glyph-name="star"
      unicode="&#xE012;"
      horiz-adv-x="1057.7233333333334" d="M528.6233333333333 183.9933333333334L212.1166666666667 18.59L272.6533333333333 368.4633333333334L16.6833333333333 615.8533333333334L370.37 666.8566666666667L528.6233333333333 984.7933333333332L686.8766666666667 666.8566666666667L1041.04 615.8533333333334L784.5933333333334 368.4633333333334L845.13 18.59L528.6233333333333 183.9933333333334z" />
    <glyph glyph-name="twitter"
      unicode="&#xE013;"
      horiz-adv-x="1208.1034482758619" d="M6.8344137931034 123.5026896551724A694.9701379310344 694.9701379310344 0 0 1 383.0723448275862 13.2201034482758C838.9070344827586 13.2201034482758 1096.4056551724138 398.1563793103446 1080.8728965517241 743.4668620689654A497.8076551724137 497.8076551724137 0 0 1 1203.3745862068965 870.5593448275861A489.5925517241378 489.5925517241378 0 0 0 1062.406172413793 831.9000344827584A245.7282413793103 245.7282413793103 0 0 1 1170.2725517241379 967.7253793103446A491.3529310344827 491.3529310344827 0 0 0 1014.4272068965518 908.1486206896552A245.24499999999998 245.24499999999998 0 0 1 835.2482068965517 985.6053103448274C676.8140689655172 985.6053103448274 560.3528965517241 837.8024827586206 596.1127586206895 684.2007586206896C392.0813448275862 694.4178620689654 211.2455172413793 792.2052068965517 90.1590344827586 940.6983793103448C25.8534137931035 830.3812758620688 56.8153793103448 685.9611379310345 166.166 612.9226551724138A244.27851724137923 244.27851724137923 0 0 0 54.9169310344828 643.6775172413793C52.2591034482759 529.9086896551723 133.7543103448276 423.5955862068966 251.8377931034483 399.8132068965517A245.76275862068962 245.76275862068962 0 0 0 141.0374482758621 395.6711379310344A245.55565517241374 245.55565517241374 0 0 1 370.3009655172414 225.1559655172413A493.7346206896551 493.7346206896551 0 0 0 6.8344137931035 123.5026896551724z" />
    <glyph glyph-name="up"
      unicode="&#xE014;"
      horiz-adv-x="1626.625" d="M812.2489375 615.1144999999999L198.94875 24.77475L0 231.9817500000001L812.2489375 1010.75975L1626.625 231.9817500000001L1427.7388125 24.77475z" />
  </font>
</defs>
</svg>
